Viktor Lazlo nackt sorted by
relevance

Admin01.07.2021

+ # A011689 Goebel Archiv Muster Laszlo Ispanky Woman Semi Nude Iris TMK5

wav" WAVE TRACK 07 AUDIO TITLE "Maennertango" PERFORMER "Ella Endlich" INDEX 01 00:00:00 FILE "08 Mein Herz traegt Dich ueber jeden Berg hinauf.
605
Admin15.07.2021

Sweet, Soft N' Lazy (The Exclusive Collection)

wav" WAVE TRACK 11 AUDIO TITLE "Wild" PERFORMER "Ella Endlich" ISRC DEA621400258 INDEX 01 00:00:00 FILE "12 Wir woll'n nicht schlafen geh'n.
3001
Admin11.07.2021

+ # A011689 Goebel Archiv Muster Laszlo Ispanky Woman Semi Nude Iris TMK5

3 X Track quality 100.
9606
Admin21.07.2021

Viktor Lazlo

6 X Track quality 100.
3503
Admin05.09.2021

Juliane Werding

The single charted on the Dutch single charts.
6006
Admin19.08.2021

+ # A011689 Goebel Archiv Muster Laszlo Ispanky Woman Semi Nude Iris TMK5

wav" WAVE TRACK 06 AUDIO TITLE "Das Schoenste ist einfach" PERFORMER "Ella Endlich" ISRC DEA621400253 INDEX 01 00:00:00 FILE "07 Wunder sind nackt.
7506
Admin20.07.2021

Gay Influence: Sal Mineo

1993 "The Dream Is in Our Hands" int• wav" WAVE TRACK 03 AUDIO TITLE "Du gehst nie allein" PERFORMER "Ella Endlich" INDEX 01 00:00:00 FILE "04 Woodstock.
4402
Admin15.06.2021

+ # A011689 Goebel Archiv Muster Laszlo Ispanky Woman Semi Nude Iris TMK5

Am Tag danach 4:13 12.
6200
Admin21.08.2021

(Pop) Ella Endlich

Meine beste Freundin ist ein Mann 3:26 9.
1701
Admin19.08.2021

Hot & Soul

Das Programm erschien als erste Live-CD Juliane Werdings.
7901