ella endlich nackt sorted by
relevance

Admin20.07.2021

Ella Endlich: Heißer Schnappschuss aufgetaucht!

wav" WAVE TRACK 05 AUDIO TITLE "So wie im Maerchen" PERFORMER "Ella Endlich" INDEX 01 00:00:00 TRACK 06 AUDIO TITLE "Berce moi, Serre moi, Aime moi" PERFORMER "Ella Endlich" INDEX 00 03:40:02 FILE "06 Berce moi, Serre moi, Aime moi.
1201
Admin09.07.2021

Wie Alt Ist Ella Endlich

wav" WAVE TRACK 11 AUDIO TITLE "Am Tag danach" PERFORMER "Ella Endlich" INDEX 01 00:00:00 FILE "12 4 Sommer und ein Herbst.
1600
Admin21.06.2021

Wie Alt Ist Ella Endlich

2 X Track quality 100.
46010
Admin29.06.2021

Wenn Kükenmuschis jucken

Mit Helene Fischer will sie allerdings nicht verglichen werden.
2204
Admin29.07.2021

Listen to free Ella Endlich — Wunder sind nackt

You may verify this by looking at the source url of the videos and images.
4203
Admin25.07.2021

Ella Nova Porno

46 94379 112199 8 24:56.
Admin23.08.2021

(Pop) Ella Endlich

00 95114 112213 8 24:56.
7309
Admin04.08.2021

Listen to free Ella Endlich — Wunder sind nackt

Please note that myfreeblack only embeds content from sites like xvideos and pornhub and does not host any image or video that is on the site.
1006
Admin20.06.2021

Ella Nova Porno

5] [CTDB TOCID: xqXH5Nr2aBd6Bk3NAg8aaMELaKk-] found.
7806
Admin21.08.2021

Listen to free Ella Endlich — Wunder sind nackt

wav" WAVE TRACK 07 AUDIO TITLE "Maennertango" PERFORMER "Ella Endlich" INDEX 01 00:00:00 FILE "08 Mein Herz traegt Dich ueber jeden Berg hinauf.
7604
Admin15.07.2021

Wie Alt Ist Ella Endlich

Lisa musste ihrer Freundin Ina etwas von unserer Fickerei geplaudert haben.
1404
Admin18.06.2021

Uschi Glas Nackt Nacktbilder Videos SextapeSexiezPix Web Porn

Der Hund hat seinn Namen verdient.